Skip to main content

Cracker Live at Mid-Atlantic Music Festival - Main Stage on 2003-07-13

by Cracker



01 Introduction
02 Mr. Wrong
03 Victoria
04 Take The Skinheads Bowling
05 Pictures Of Matchstick Men
06 Introductions/Wedding Day
07 Leftover Salmon Returns
08 Get Off This
09 Eurotrash Girl
10 Teen Angst


Collection Cracker
Band/Artist Cracker
Date July 13, 2003
Venue Mid-Atlantic Music Festival - Main Stage
Location Lewisburg, WV

Source ?
Lineage ? > CD's from Schmear > EAC > WAV > xACT1.59 > FLAC
Taped by ?
Transferred by ? / TAS aka morst


Notes

shntool results:
length expanded size cdr WAVE problems filename
1:40.06 17654156 --- -- ---xx Cracker2003-07-13t01.flac
4:38.63 49187420 --- -- ---xx Cracker2003-07-13t02.flac
4:06.32 43469708 --- -- ---xx Cracker2003-07-13t03.flac
2:41.39 28492172 --- -- ---xx Cracker2003-07-13t04.flac
5:17.11 55944716 --- -- ---xx Cracker2003-07-13t05.flac
3:55.64 41604572 --- -- ---xx Cracker2003-07-13t06.flac
1:41.32 17891708 --- -- ---xx Cracker2003-07-13t07.flac
12:20.24 130592492 --- -- ---xx Cracker2003-07-13t08.flac
9:02.61 95752316 --- -- ---xx Cracker2003-07-13t09.flac
8:55.10 94397564 --- -- ---xx Cracker2003-07-13t10.flac
54:19.42 574986824 B (totals for 10 files, 0.4405 overall compression ratio)

Reviews

Reviewer: JimBeamA - - November 13, 2009
Subject: The rest of the show available
The complete show and complete source info is under Left Over Salmon
http://www.archive.org/details/los2003-07-13.flac

I love this show. Extended versions of Cracker infused with Left Over Salmon craziness. AWESOME! This is a must have show.
Reviewer: morst - - November 4, 2007
Subject: Brief dropout during Victoria
No source info on this one, though one trader on etree.org has a version marked AKG 681 > Sound Devices MP2 > SBM1 > DA-P1 (44.1); DA-P1 > ZA2 > SoundForge > CDWAV > flac
PEOPLE ALSO FOUND
Cracker
by Cracker
196
0
0
Source: internal Mic > Panasonic RX-SR29 Tape Deck > (2) Maxell XLII 90
Cracker
by Cracker
394
0
1
( 1 reviews )
Source: Neumann KM140's > Shure FP24 > Sony PCM-M10 > WAV @24/48
Cracker
307
0
0
Source: Neumann KM140's > Sonosax SX-M2 > Sony PCM-M10 > WAVs @48kHz/24bit + Soundcraft 800B SBD > Edirol R44 > WAVs @48kHz/24bit
Cracker
by Cracker
1,228
0
1
( 1 reviews )
Source: Multichannel SBD+AUD
Cracker
by Cracker
72
0
0
Source: audience DAT
Cracker
by Cracker
134
0
0
Source: Sony ECM Mic -> Sony HI-MD -> Sonic Stage -> wav
Cracker
by Cracker
182
0
0
Source: SBD + Audience 4-channel post-production matrix mix
Cracker
by Cracker
166
0
0
Source: FOB DFC DPA(B&K)4011s->V2->Luminous Synchestra Signature XLRs->AD2K@ 24/48->722
Cracker
by Cracker
327
0
0
Source: SBD > Sony PCM-M10 > WAV @24/48
Cracker
by Cracker
158
0
0
Source: Schoeps MK4Vs > Lunatec V3 > Sound Devices 744t